osu file format v14

[General]
AudioFilename: Music S.T.A.R.T!! .mp3
AudioLeadIn: 1500
PreviewTime: 67013
Countdown: 0
SampleSet: Soft
StackLeniency: 0.7
Mode: 0
LetterboxInBreaks: 0
WidescreenStoryboard: 0

[Editor]
Bookmarks: 38174
DistanceSpacing: 1.5
BeatDivisor: 4
GridSize: 16
TimelineZoom: 1.6

[Metadata]
Title:Music S.T.A.R.T!!
TitleUnicode:Music S.T.A.R.T!!
Artist:u's
ArtistUnicode:μ's
Creator:Karen
Version:Moecho's Insane
Source:Love Live! School idol project
Tags:music_start iamkwan [CSGA]Ar3sgice moecho Sakaue Nachi kawaiwkyik lovelive muse
BeatmapID:673074
BeatmapSetID:292823

[Difficulty]
HPDrainRate:6
CircleSize:4
OverallDifficulty:7
ApproachRate:9
SliderMultiplier:1.6
SliderTickRate:1

[Events]
//Background and Video events
0,0,"bg.jpg",0,0
//Break Periods
//Storyboard Layer 0 (Background)
//Storyboard Layer 1 (Fail)
//Storyboard Layer 2 (Pass)
//Storyboard Layer 3 (Foreground)
//Storyboard Sound Samples

[TimingPoints]
1389,357.142857142857,4,2,8,60,1,0
1389,-133.333333333333,4,2,8,60,0,0
15674,-100,4,2,8,70,0,0
29424,-62.5,4,2,8,70,0,0
29603,-62.5,4,2,88,70,0,0
29960,-100,4,2,8,70,0,0
39960,-100,4,2,18,70,0,0
41299,-100,4,2,18,15,0,0
41388,-100,4,2,8,70,0,0
48531,-86.9565217391304,4,2,8,70,0,0
52817,-133.333333333333,4,2,18,70,0,0
53174,-133.333333333333,4,2,8,70,0,0
55317,-133.333333333333,4,2,18,70,0,0
55496,-133.333333333333,4,2,8,70,0,0
55674,-133.333333333333,4,2,18,70,0,0
55853,-133.333333333333,4,2,8,70,0,0
57103,-100,4,2,18,70,0,0
58531,-133.333333333333,4,2,18,70,0,0
58888,-133.333333333333,4,2,8,70,0,0
59960,-133.333333333333,4,2,18,70,0,0
60138,-133.333333333333,4,2,8,70,0,0
60496,-133.333333333333,4,2,18,70,0,0
60853,-133.333333333333,4,2,8,70,0,0
61388,-100,4,2,8,80,0,0
65674,-133.333333333333,4,2,8,80,0,0
66746,-66.6666666666667,4,2,88,80,0,0
67103,-83.3333333333333,4,2,8,80,0,1
75674,-125,4,2,8,80,0,1
75942,-125,4,2,8,25,0,1
76031,-83.3333333333333,4,2,8,80,0,1
76388,-125,4,2,8,80,0,1
76656,-125,4,2,8,25,0,1
76746,-83.3333333333333,4,2,8,80,0,1
77103,-80,4,2,8,80,0,1
94603,-100,4,2,8,80,0,0
95674,-133.333333333333,4,2,8,80,0,0
96388,-100,4,2,8,80,0,0
97103,-83.3333333333333,4,2,8,85,0,1
119960,-100,4,2,8,70,0,0
131478,-100,4,2,28,70,0,0

[Colours]
Combo1 : 111,111,255
Combo2 : 255,115,255
Combo3 : 255,255,128
Combo4 : 247,89,113

[HitObjects]
85,205,1389,6,0,L|204:191,1,120.000004577637,4|0,0:0|0:0,0:0:0:0:
210,285,2103,2,0,B|253:284|287:253|295:214,1,120.000004577637,,,0:0:0:0:
244,79,2817,2,0,L|363:92,2,120.000004577637,,,0:0:0:0:
159,146,3710,1,0,0:0:0:0:
82,71,3888,2,0,B|75:51|74:30|79:10,1,60.0000022888184,,,0:0:0:0:
159,146,4246,6,0,L|99:152,1,60.0000022888184,,,0:0:0:0:
244,78,4603,2,0,L|304:72,1,60.0000022888184,,,0:0:0:0:
194,233,4960,2,0,L|134:223,1,60.0000022888184,,,0:0:0:0:
293,189,5317,2,0,L|352:198,1,60.0000022888184,,,0:0:0:0:
463,209,5674,2,0,B|427:232|382:226|354:199,1,120.000004577637,,,0:0:0:0:
254,49,6388,1,4,0:0:0:0:
415,130,6746,1,0,0:0:0:0:
242,188,7103,6,0,B|278:165|324:171|352:198,1,120.000004577637,4|0,0:0|0:0,0:0:0:0:
452,349,7816,1,0,0:0:0:0:
291,268,8174,1,0,0:0:0:0:
464,209,8531,2,0,B|493:178|495:132|474:99,2,120.000004577637,4|0|0,0:0|0:0|0:0,0:0:0:0:
291,268,9603,1,0,0:0:0:0:
392,146,9960,6,0,L|382:265,1,120.000004577637,4|0,0:0|0:0,0:0:0:0:
205,237,10674,2,0,L|214:356,1,120.000004577637,,,0:0:0:0:
93,234,11388,2,0,B|126:260|171:260|203:238,1,120.000004577637,4|0,0:0|0:0,0:0:0:0:
319,154,11924,1,0,0:0:0:0:
319,154,12103,2,0,L|309:273,1,120.000004577637,4|0,0:0|0:0,0:0:0:0:
231,330,12638,1,0,0:0:0:0:
320,371,12817,5,4,0:0:0:0:
256,192,12906,12,0,15138,0:0:0:0:
181,170,15317,6,0,L|176:110,1,60.0000022888184,,,0:0:0:0:
73,174,15674,5,2,0:0:0:0:
224,256,15853,1,2,0:0:0:0:
73,174,16031,2,0,L|82:254,1,80,2|2,0:0|0:0,0:0:0:0:
158,336,16388,2,0,B|126:365|84:372|46:360,2,120,2|2|2,0:0|0:0|0:0,0:0:0:0:
224,256,17103,6,0,L|233:176,1,80,2|0,0:0|0:0,0:0:0:0:
82,254,17460,2,0,L|73:174,1,80,2|8,0:0|0:0,0:0:0:0:
80,155,17728,1,8,0:0:0:0:
90,137,17817,2,0,L|129:133,3,40,8|8|8|8,0:0|0:0|0:0|0:0,0:0:0:0:
197,48,18174,2,0,L|157:44,3,40,8|8|8|8,0:0|0:0|0:0|0:0,0:0:0:0:
257,121,18531,6,0,B|283:132|311:128|333:115,1,80,6|0,0:0|0:0,0:0:0:0:
440,66,18888,1,8,0:0:0:0:
340,36,19067,2,0,L|334:116,1,80,2|0,0:0|0:0,0:0:0:0:
430,168,19424,1,0,0:0:0:0:
309,206,19603,1,8,0:0:0:0:
459,281,19781,1,0,0:0:0:0:
303,294,19960,6,0,B|331:294|357:282|375:264,1,80,2|0,0:0|0:0,0:0:0:0:
498,98,20317,2,0,B|479:77|453:67|427:68,1,80,10|0,0:0|0:0,0:0:0:0:
309,206,20674,1,2,0:0:0:0:
430,168,20853,1,0,0:0:0:0:
300,126,21031,2,0,L|309:206,1,80,8|0,0:0|0:0,0:0:0:0:
175,262,21388,6,0,L|184:182,1,80,6|0,0:0|0:0,0:0:0:0:
79,260,21746,1,8,0:0:0:0:
183,182,21924,2,0,B|199:158|200:129|190:105,1,80,2|0,0:0|0:0,0:0:0:0:
49,41,22281,1,0,0:0:0:0:
116,138,22460,1,8,0:0:0:0:
0,208,22638,1,0,0:0:0:0:
82,339,22817,6,0,L|79:260,1,80,2|0,0:0|0:0,0:0:0:0:
116,138,23174,2,0,B|88:131|61:133|36:143,1,80,10|0,0:0|0:0,0:0:0:0:
204,232,23531,2,0,B|232:238|259:236|283:227,1,80,2|0,0:0|0:0,0:0:0:0:
363,127,23888,1,12,0:0:0:0:
349,146,24246,6,0,L|428:139,1,80,2|0,0:0|0:0,0:0:0:0:
411,229,24603,2,0,L|490:222,1,80,10|0,0:0|0:0,0:0:0:0:
234,270,24960,2,0,L|314:277,1,80,2|0,0:0|0:0,0:0:0:0:
172,353,25317,2,0,L|252:360,1,80,10|0,0:0|0:0,0:0:0:0:
104,186,25674,5,12,0:0:0:0:
234,270,25853,1,2,0:0:0:0:
72,320,26031,1,8,0:0:0:0:
240,190,26210,2,0,L|234:270,1,80,14|0,0:0|0:0,0:0:0:0:
172,353,26567,1,0,0:0:0:0:
314,277,26746,1,8,0:0:0:0:
166,202,26924,1,8,0:0:0:0:
166,202,27013,1,8,0:0:0:0:
166,202,27103,5,12,0:0:0:0:
234,270,27281,1,8,0:0:0:0:
175,107,27460,1,8,0:0:0:0:
166,202,27638,1,8,0:0:0:0:
253,52,27817,1,8,0:0:0:0:
175,107,27996,1,8,0:0:0:0:
345,76,28174,1,8,0:0:0:0:
253,52,28353,1,8,0:0:0:0:
450,13,28531,5,12,0:0:0:0:
449,13,28710,2,0,B|435:38|435:66|445:90,1,80,12|0,0:0|0:0,0:0:0:0:
510,185,29067,2,0,L|391:172,1,120,12|0,0:0|0:0,0:0:0:0:
391,172,29424,1,8,0:0:0:0:
327,283,29603,6,0,L|454:267,1,128,8|0,0:0|0:0,0:0:0:0:
391,172,29960,6,0,B|377:147|375:119|383:94,1,80,4|0,0:3|0:0,0:0:0:0:
300,188,30317,1,4,0:3:0:0:
463,125,30496,1,0,0:0:0:0:
291,108,30674,2,0,L|300:188,1,80,4|0,0:3|0:0,0:0:0:0:
249,264,31031,1,4,0:3:0:0:
391,172,31210,1,0,0:0:0:0:
249,264,31388,6,0,B|272:281|299:284|324:276,1,80,4|0,0:3|0:0,0:0:0:0:
498,253,31746,1,4,0:3:0:0:
498,253,31924,2,0,B|475:236|448:233|423:241,1,80,0|4,0:0|0:3,0:0:0:0:
249,264,32281,1,0,0:0:0:0:
433,163,32460,1,4,0:3:0:0:
325,275,32638,1,0,0:0:0:0:
432,162,32817,6,0,L|423:242,1,80,4|0,0:3|0:0,0:0:0:0:
287,118,33174,1,4,0:3:0:0:
287,118,33353,2,0,L|298:198,1,80,0|4,0:0|0:3,0:0:0:0:
394,313,33710,1,0,0:0:0:0:
249,264,33888,1,4,0:3:0:0:
433,163,34067,1,0,0:0:0:0:
298,198,34246,6,0,L|287:118,1,80,4|0,0:3|0:0,0:0:0:0:
249,264,34603,1,4,0:3:0:0:
95,189,34781,1,0,0:0:0:0:
95,189,34871,1,0,0:0:0:0:
95,189,34960,1,4,0:3:0:0:
131,347,35138,1,0,0:0:0:0:
249,264,35317,2,0,L|238:344,1,80,4|0,0:3|0:0,0:0:0:0:
238,343,35674,6,0,B|263:330|291:330|315:340,1,80,4|0,0:3|0:0,0:0:0:0:
136,261,36031,1,4,0:3:0:0:
136,261,36210,2,0,B|110:273|82:273|58:263,1,80,0|4,0:0|0:3,0:0:0:0:
253,240,36567,1,0,0:0:0:0:
95,187,36746,1,4,0:3:0:0:
276,133,36924,1,0,0:0:0:0:
86,107,37103,6,0,L|95:187,1,80,4|0,0:3|0:0,0:0:0:0:
276,133,37460,2,0,L|285:213,1,80,4|0,0:3|0:0,0:0:0:0:
1,181,37817,2,0,L|10:261,1,80,4|0,0:3|0:0,0:0:0:0:
191,207,38174,2,0,L|200:287,1,80,4|0,0:3|0:0,0:0:0:0:
318,370,38531,6,0,B|356:394|404:386|434:353|440:314,1,160,4|4,0:3|0:3,0:0:0:0:
353,221,39067,1,0,0:0:0:0:
353,221,39246,2,0,L|361:301,1,80,4|0,0:3|0:0,0:0:0:0:
255,334,39603,1,4,0:3:0:0:
95,187,39781,1,4,0:3:0:0:
95,187,39871,1,0,0:0:0:0:
95,187,39960,5,6,0:3:0:0:
246,226,40138,1,2,0:3:0:0:
51,272,40317,1,2,0:3:0:0:
353,221,40496,1,6,0:3:0:0:
192,44,40853,5,2,0:3:0:0:
277,108,41031,2,0,B|313:131|359:122|385:92,1,120,2|0,0:0|0:0,0:0:0:0:
444,52,41388,6,0,L|441:157,1,80,4|0,0:0|0:0,0:0:0:0:
404,301,41746,1,10,0:0:0:0:
258,192,41924,1,0,0:0:0:0:
309,334,42103,1,2,0:0:0:0:
372,187,42281,1,0,0:0:0:0:
229,340,42460,2,0,L|309:334,1,80,10|0,0:0|0:0,0:0:0:0:
404,301,42817,5,2,0:0:0:0:
258,192,42996,1,0,0:0:0:0:
419,234,43174,1,8,0:0:0:0:
214,268,43353,1,0,0:0:0:0:
348,171,43531,2,0,L|342:250,1,80,2|0,0:0|0:0,0:0:0:0:
125,175,43888,2,0,L|130:95,1,80,10|0,0:0|0:0,0:0:0:0:
319,47,44246,6,0,B|294:60|266:61|242:55,1,80,2|0,0:0|0:0,0:0:0:0:
186,238,44603,2,0,B|211:224|238:222|263:229,1,80,8|0,0:0|0:0,0:0:0:0:
125,175,44960,1,2,0:0:0:0:
340,219,45138,1,0,0:0:0:0:
187,238,45317,1,8,0:0:0:0:
356,130,45495,1,0,0:0:0:0:
263,229,45674,6,0,L|267:149,1,80,2|0,0:0|0:0,0:0:0:0:
146,33,46031,2,0,L|151:113,1,80,8|0,0:0|0:0,0:0:0:0:
25,99,46388,1,2,0:0:0:0:
103,185,46567,1,0,0:0:0:0:
272,69,46746,2,0,L|268:149,1,80,8|0,0:0|0:0,0:0:0:0:
364,214,47103,6,0,B|377:189|379:161|372:137,1,80,2|0,0:0|0:0,0:0:0:0:
192,215,47460,2,0,B|178:240|176:267|183:292,1,80,8|0,0:0|0:0,0:0:0:0:
103,185,47817,1,2,0:0:0:0:
261,262,47996,1,8,0:0:0:0:
57,300,48174,1,8,0:0:0:0:
173,122,48353,1,2,0:0:0:0:
173,122,48442,1,0,0:0:0:0:
173,122,48531,6,0,L|264:130,1,92.0000017547608,2|0,0:0|0:0,0:0:0:0:
352,253,48888,2,0,L|261:262,1,92.0000017547608,2|0,0:0|0:0,0:0:0:0:
423,319,49246,2,0,B|458:281|461:226|433:184|393:165,2,184.000003509522,0|0|2,0:0|0:0|0:0,0:0:0:0:
243,355,50138,5,0,0:0:0:0:
352,253,50317,2,0,L|261:262,1,92.0000017547608,8|2,0:0|0:0,0:0:0:0:
423,319,50674,1,2,0:0:0:0:
495,224,50853,1,2,0:0:0:0:
392,164,51031,1,8,0:0:0:0:
261,262,51210,6,0,L|352:253,1,92.0000017547608,2|0,0:0|0:0,0:0:0:0:
297,90,51567,1,2,0:0:0:0:
392,164,51746,1,10,0:0:0:0:
260,262,51924,1,2,0:0:0:0:
260,262,52013,1,0,0:0:0:0:
260,262,52103,1,0,0:0:0:0:
423,319,52281,1,2,0:0:0:0:
327,215,52460,1,8,0:0:0:0:
314,180,52549,1,8,0:0:0:0:
314,143,52638,1,8,0:0:0:0:
331,110,52728,1,8,0:0:0:0:
360,88,52817,6,0,L|240:101,1,120.000004577637,6|0,0:0|0:0,0:0:0:0:
150,13,53353,1,4,0:3:0:0:
150,13,53531,2,0,L|209:20,1,60.0000022888184,4|0,0:3|0:0,0:0:0:0:
240,101,53888,2,0,L|287:63,1,60.0000022888184,8|0,0:0|0:0,0:0:0:0:
236,184,54246,6,0,B|215:182|196:172|182:159,2,60.0000022888184,4|0|0,0:3|0:0|0:0,0:0:0:0:
353,154,54781,1,4,0:3:0:0:
233,40,54960,2,0,L|240:101,1,60.0000022888184,0|4,0:0|0:3,0:0:0:0:
358,94,55317,2,0,L|353:154,1,60.0000022888184,6|0,0:3|0:0,0:0:0:0:
321,245,55674,6,0,B|340:235|360:231|380:233,1,60.0000022888184,6|0,0:3|0:0,0:0:0:0:
492,183,56031,2,0,B|471:184|451:180|434:171,1,60.0000022888184,0|4,0:0|0:3,0:0:0:0:
358,94,56388,2,0,L|363:34,1,60.0000022888184,4|0,0:3|0:0,0:0:0:0:
241,124,56746,2,0,L|236:184,1,60.0000022888184,8|0,0:0|0:0,0:0:0:0:
158,255,57103,6,0,B|130:262|102:260|77:252,1,80,6|0,0:3|0:0,0:0:0:0:
236,184,57460,2,0,B|264:176|291:178|316:186,1,80,6|0,0:3|0:0,0:0:0:0:
437,86,57817,2,0,L|358:94,1,80,6|0,0:3|0:0,0:0:0:0:
236,184,58174,1,0,0:0:0:0:
206,171,58263,1,0,0:0:0:0:
187,144,58353,1,0,0:0:0:0:
186,112,58442,1,0,0:0:0:0:
200,83,58531,6,0,B|234:109|279:107|311:85,1,120.000004577637,6|0,0:3|0:0,0:0:0:0:
441,27,59067,1,4,0:3:0:0:
441,27,59246,2,0,L|438:87,1,60.0000022888184,4|0,0:3|0:0,0:0:0:0:
308,144,59603,2,0,L|312:85,1,60.0000022888184,8|0,0:0|0:0,0:0:0:0:
369,221,59960,5,6,0:3:0:0:
420,139,60138,1,0,0:0:0:0:
312,85,60317,1,8,0:0:0:0:
369,221,60496,2,0,B|405:243|449:238|479:214,1,120.000004577637,6|0,0:3|0:0,0:0:0:0:
416,79,61031,2,0,L|420:139,1,60.0000022888184,8|0,0:0|0:0,0:0:0:0:
369,221,61388,5,4,0:0:0:0:
273,266,61567,1,0,0:0:0:0:
341,346,61746,2,0,B|368:338|395:338|420:346,1,80,8|0,0:0|0:0,0:0:0:0:
204,347,62103,2,0,B|177:355|149:355|124:347,1,80,,,0:0:0:0:
273,266,62460,1,8,0:0:0:0:
167,230,62638,1,0,0:0:0:0:
59,291,62817,6,0,L|64:212,1,80,,,0:0:0:0:
167,230,63174,2,0,L|162:150,1,80,8|0,0:0|0:0,0:0:0:0:
91,78,63531,1,2,0:0:0:0:
263,147,63710,1,2,0:0:0:0:
167,229,63888,1,10,0:0:0:0:
383,184,64067,1,2,0:0:0:0:
410,149,64603,5,6,0:0:0:0:
139,103,64960,1,6,0:0:0:0:
130,154,65674,5,6,0:0:0:0:
376,144,65853,1,2,0:0:0:0:
196,207,66031,1,10,0:0:0:0:
352,50,66210,2,0,B|325:83|278:89|245:66,1,120.000004577637,6|0,0:0|0:0,0:0:0:0:
245,66,66746,6,0,L|303:171,1,120.000004577637,8|0,0:0|0:0,0:0:0:0:
453,98,67103,6,0,B|468:129|469:162|459:191,1,95.9999970703126,6|0,0:0|0:0,0:0:0:0:
347,297,67460,1,8,0:0:0:0:
347,297,67638,2,0,L|442:305,1,95.9999970703126,,,0:0:0:0:
265,361,67996,2,0,L|169:352,1,95.9999970703126,0|8,0:0|0:0,0:0:0:0:
49,218,68353,6,0,B|80:204|114:207|141:223,1,95.9999970703126,2|0,0:0|0:0,0:0:0:0:
226,286,68710,1,0,0:0:0:0:
92,291,68888,1,8,0:0:0:0:
267,205,69067,1,0,0:0:0:0:
134,127,69246,2,0,L|141:223,1,95.9999970703126,2|0,0:0|0:0,0:0:0:0:
275,301,69603,2,0,L|267:205,1,95.9999970703126,10|0,0:0|0:0,0:0:0:0:
300,72,69960,6,0,B|326:50|360:44|390:53,1,95.9999970703126,6|0,0:0|0:0,0:0:0:0:
466,187,70317,1,8,0:0:0:0:
466,187,70496,2,0,L|371:178,1,95.9999970703126,,,0:0:0:0:
275,301,70853,2,0,L|370:291,1,95.9999970703126,0|8,0:0|0:0,0:0:0:0:
466,187,71210,6,0,B|479:156|477:122|465:94,1,95.9999970703126,0|2,0:0|0:0,0:0:0:0:
491,280,71567,1,0,0:0:0:0:
280,214,71746,1,10,0:0:0:0:
379,142,71924,1,0,0:0:0:0:
268,118,72103,2,0,L|280:214,1,95.9999970703126,2|0,0:0|0:0,0:0:0:0:
391,46,72460,2,0,L|379:142,1,95.9999970703126,8|0,0:0|0:0,0:0:0:0:
298,46,72817,5,6,0:0:0:0:
462,125,72996,1,0,0:0:0:0:
268,118,73174,1,8,0:0:0:0:
393,237,73353,1,0,0:0:0:0:
215,310,73531,1,0,0:0:0:0:
280,214,73710,1,0,0:0:0:0:
157,110,73888,2,0,L|165:205,1,95.9999970703126,8|0,0:0|0:0,0:0:0:0:
215,310,74246,6,0,B|177:273|115:276|78:319|76:366,1,191.999994140625,4|8,0:0|0:0,0:0:0:0:
215,310,74781,2,0,L|310:304,1,95.9999970703126,4|0,0:0|0:0,0:0:0:0:
165,205,75138,1,0,0:0:0:0:
158,369,75317,1,8,0:0:0:0:
310,304,75496,1,0,0:0:0:0:
165,205,75674,6,0,L|63:204,1,96,,,0:0:0:0:
73,171,76031,6,0,L|209:172,1,95.9999970703126,14|0,0:0|0:0,0:0:0:0:
381,201,76388,6,0,L|280:200,1,96,,,0:0:0:0:
291,164,76746,6,0,L|414:167,1,95.9999970703126,14|0,0:0|0:0,0:0:0:0:
347,0,77103,5,2,0:0:0:0:
161,105,77281,1,2,0:0:0:0:
161,105,77638,1,2,0:0:0:0:
291,164,77817,1,0,0:0:0:0:
291,164,77906,1,0,0:0:0:0:
291,164,77996,1,0,0:0:0:0:
291,164,78085,1,0,0:0:0:0:
291,164,78174,2,0,L|290:227,1,50,,,0:0:0:0:
240,88,78353,2,0,L|241:25,1,50,,,0:0:0:0:
290,164,78531,6,0,B|261:184|225:185|196:170,1,100,6|0,0:0|0:0,0:0:0:0:
50,95,78888,1,8,0:0:0:0:
50,95,79067,2,0,L|57:194,1,100,,,0:0:0:0:
196,170,79424,2,0,L|188:269,1,100,0|8,0:0|0:0,0:0:0:0:
97,364,79781,6,0,B|66:381|28:375|4:352,1,100,2|0,0:0|0:0,0:0:0:0:
200,357,80138,1,0,0:0:0:0:
60,292,80317,1,8,0:0:0:0:
243,224,80496,1,0,0:0:0:0:
118,106,80674,2,0,L|125:205,1,100,2|0,0:0|0:0,0:0:0:0:
302,279,81031,2,0,B|327:254|331:217|316:188,1,100,10|0,0:0|0:0,0:0:0:0:
236,58,81388,6,0,B|262:83|299:87|328:71,1,100,6|0,0:0|0:0,0:0:0:0:
472,10,81746,1,8,0:0:0:0:
472,10,81924,2,0,L|464:109,1,100,,,0:0:0:0:
330,71,82281,2,0,L|338:170,1,100,0|8,0:0|0:0,0:0:0:0:
419,250,82638,6,0,B|446:273|483:275|511:257,1,100,0|2,0:0|0:0,0:0:0:0:
328,269,82996,1,0,0:0:0:0:
470,188,83174,1,10,0:0:0:0:
282,125,83353,1,0,0:0:0:0:
419,250,83531,2,0,B|446:273|483:275|511:257,1,100,2|0,0:0|0:0,0:0:0:0:
282,125,83888,2,0,B|255:100|217:99|189:118,1,100,8|0,0:0|0:0,0:0:0:0:
80,63,84246,6,0,L|73:162,1,100,6|0,0:0|0:0,0:0:0:0:
223,287,84603,2,0,L|230:188,1,100,10|0,0:0|0:0,0:0:0:0:
60,343,84960,2,0,B|89:364|125:365|154:350,1,100,2|0,0:0|0:0,0:0:0:0:
324,195,85317,2,0,B|296:173|258:172|230:188,1,100,10|0,0:0|0:0,0:0:0:0:
411,134,85674,5,10,0:0:0:0:
272,259,85853,1,2,0:0:0:0:
387,330,86031,1,10,0:0:0:0:
315,95,86210,2,0,L|324:195,1,100,14|0,0:0|0:0,0:0:0:0:
411,134,86567,1,0,0:0:0:0:
272,259,86746,1,8,0:0:0:0:
183,157,86924,1,0,0:0:0:0:
315,95,87103,6,0,L|324:195,1,100,2|0,0:0|0:0,0:0:0:0:
272,259,87460,1,8,0:0:0:0:
411,134,87638,1,0,0:0:0:0:
411,134,87817,2,0,L|402:234,1,100,2|0,0:0|0:0,0:0:0:0:
174,257,88174,2,0,L|183:157,1,100,10|0,0:0|0:0,0:0:0:0:
268,42,88531,6,0,B|297:20|333:18|363:33,1,100,,,0:0:0:0:
183,157,88888,2,0,B|154:178|117:179|87:165,1,100,8|0,0:0|0:0,0:0:0:0:
127,61,89246,1,0,0:0:0:0:
170,263,89424,1,0,0:0:0:0:
324,124,89603,2,0,L|319:223,1,100,8|0,0:0|0:0,0:0:0:0:
281,328,89960,6,0,B|313:343|349:338|376:319,1,100,6|0,0:0|0:0,0:0:0:0:
170,263,90317,2,0,L|70:272,1,100,10|0,0:0|0:0,0:0:0:0:
320,224,90674,2,0,L|419:233,1,100,2|0,0:0|0:0,0:0:0:0:
456,129,91031,1,10,0:0:0:0:
320,224,91210,1,0,0:0:0:0:
398,80,91388,6,0,B|414:112|410:147|393:175,1,100,2|0,0:0|0:0,0:0:0:0:
280,314,91746,2,0,L|379:323,1,100,10|0,0:0|0:0,0:0:0:0:
213,187,92103,2,0,B|181:170|145:173|117:191,1,100,2|0,0:0|0:0,0:0:0:0:
299,70,92460,1,10,0:0:0:0:
213,187,92638,1,0,0:0:0:0:
343,141,92817,6,0,L|392:141,1,50,12|0,0:0|0:0,0:0:0:0:
322,240,92996,2,0,L|272:239,1,50,8|0,0:0|0:0,0:0:0:0:
418,164,93174,6,0,L|467:164,1,50,8|0,0:0|0:0,0:0:0:0:
396,262,93353,2,0,L|347:262,1,50,8|0,0:0|0:0,0:0:0:0:
272,239,93531,5,8,0:0:0:0:
285,217,93621,1,8,0:0:0:0:
291,192,93710,1,8,0:0:0:0:
290,167,93799,1,8,0:0:0:0:
280,144,93888,1,8,0:0:0:0:
263,124,93978,1,8,0:0:0:0:
240,112,94067,1,8,0:0:0:0:
215,107,94156,1,8,0:0:0:0:
190,110,94246,5,4,0:0:0:0:
376,47,94603,1,4,0:0:0:0:
375,47,95674,6,0,B|349:66|316:67|290:53,1,90.0000034332277,,,0:0:0:0:
264,37,96031,1,0,0:0:0:0:
394,142,96210,1,0,0:0:0:0:
394,142,96299,1,0,0:0:0:0:
394,142,96388,6,0,L|388:181,3,40,,,0:0:0:0:
303,209,96746,2,0,L|308:248,3,40,,,0:0:0:0:
363,311,97103,6,0,B|393:327|427:323|453:305,1,95.9999970703126,6|0,0:0|0:0,0:0:0:0:
505,167,97460,1,8,0:0:0:0:
404,240,97638,1,0,0:0:0:0:
293,113,97817,2,0,L|303:209,1,95.9999970703126,,,0:0:0:0:
265,311,98174,1,8,0:0:0:0:
404,240,98353,1,0,0:0:0:0:
293,113,98531,6,0,B|333:147|392:146|433:113|447:69,2,191.999994140625,0|8|0,0:0|0:0|0:0,0:0:0:0:
193,196,99424,1,0,0:0:0:0:
78,135,99603,2,0,L|75:39,1,95.9999970703126,8|0,0:0|0:0,0:0:0:0:
296,18,99960,6,0,L|293:113,1,95.9999970703126,2|0,0:0|0:0,0:0:0:0:
193,195,100317,2,0,B|222:179|257:183|282:202,1,95.9999970703126,8|0,0:0|0:0,0:0:0:0:
425,273,100674,2,0,L|420:177,1,95.9999970703126,,,0:0:0:0:
193,196,101031,2,0,L|197:100,1,95.9999970703126,8|0,0:0|0:0,0:0:0:0:
282,202,101388,6,0,B|279:255|235:296|180:298|142:272,1,191.999994140625,2|8,0:0|0:0,0:0:0:0:
22,146,101924,1,0,0:0:0:0:
22,146,102103,2,0,L|31:242,1,95.9999970703126,,,0:0:0:0:
193,196,102460,2,0,L|184:292,1,95.9999970703126,8|0,0:0|0:0,0:0:0:0:
95,297,102817,6,0,B|98:350|141:391|196:393|234:367,1,191.999994140625,6|8,0:0|0:0,0:0:0:0:
363,244,103353,1,0,0:0:0:0:
363,244,103531,2,0,L|371:139,1,95.9999970703126,,,0:0:0:0:
193,196,103888,2,0,L|185:91,1,95.9999970703126,8|0,0:0|0:0,0:0:0:0:
84,21,104246,6,0,B|98:72|150:103|204:91|236:57,1,191.999994140625,6|8,0:0|0:0,0:0:0:0:
293,146,104781,1,0,0:0:0:0:
193,196,104960,2,0,L|98:190,1,95.9999970703126,,,0:0:0:0:
293,146,105317,2,0,L|387:151,1,95.9999970703126,8|0,0:0|0:0,0:0:0:0:
206,283,105674,6,0,B|163:267|163:267|63:261,1,143.999995605469,,,0:0:0:0:
65,261,106031,2,0,B|40:238|36:202|52:175,1,95.9999970703126,14|0,0:0|0:0,0:0:0:0:
138,36,106388,2,0,B|181:52|181:52|279:58,1,143.999995605469,,,0:0:0:0:
279,58,106745,2,0,B|305:81|310:118|293:145,1,95.9999970703126,14|0,0:0|0:0,0:0:0:0:
193,196,107103,5,8,0:0:0:0:
298,224,107281,1,8,0:0:0:0:
122,236,107460,1,10,0:0:0:0:
369,182,107638,1,8,0:0:0:0:
193,196,107817,6,0,L|196:255,3,47.9999985351563,10|0|0|0,0:0|0:0|0:0|0:0,0:0:0:0:
298,224,108174,2,0,L|301:165,3,47.9999985351563,10|0|0|0,0:0|0:0|0:0|0:0,0:0:0:0:
237,120,108531,6,0,B|273:81|334:79|375:117|383:163,2,191.999994140625,6|8|0,0:0|0:0|0:0,0:0:0:0:
298,224,109424,1,0,0:0:0:0:
383,165,109603,2,0,L|480:162,1,95.9999970703126,8|0,0:0|0:0,0:0:0:0:
281,58,109960,6,0,L|184:61,1,95.9999970703126,2|0,0:0|0:0,0:0:0:0:
338,0,110317,2,0,B|364:22|370:58|356:86,1,95.9999970703126,8|0,0:0|0:0,0:0:0:0:
298,224,110674,1,0,0:0:0:0:
437,103,110852,1,0,0:0:0:0:
383,165,111031,1,8,0:0:0:0:
338,0,111210,1,0,0:0:0:0:
236,118,111388,6,0,B|264:138|299:136|324:117,1,95.9999970703126,2|0,0:0|0:0,0:0:0:0:
472,165,111746,2,0,B|445:144|409:146|384:165,1,95.9999970703126,8|0,0:0|0:0,0:0:0:0:
298,224,112103,2,0,L|306:322,1,95.9999970703126,,,0:0:0:0:
182,171,112460,2,0,L|174:73,1,95.9999970703126,8|0,0:0|0:0,0:0:0:0:
121,227,112817,6,0,B|157:266|219:267|258:226|263:179,1,191.999994140625,2|8,0:0|0:0,0:0:0:0:
116,131,113353,1,0,0:0:0:0:
116,131,113531,2,0,L|121:227,1,95.9999970703126,,,0:0:0:0:
196,317,113888,1,8,0:0:0:0:
263,175,114067,1,0,0:0:0:0:
196,316,114246,6,0,B|215:281|254:264|293:272|318:294,1,143.999995605469,2|0,0:0|0:0,0:0:0:0:
356,326,114603,2,0,L|366:230,1,95.9999970703126,8|0,0:0|0:0,0:0:0:0:
336,163,114871,1,0,0:0:0:0:
336,163,114960,2,0,B|367:149|402:158|422:182,1,95.9999970703126,,,0:0:0:0:
176,221,115317,2,0,B|145:235|110:226|90:202,1,95.9999970703126,8|0,0:0|0:0,0:0:0:0:
156,58,115674,6,0,L|146:154,1,95.9999970703126,2|0,0:0|0:0,0:0:0:0:
346,259,116031,2,0,L|336:163,1,95.9999970703126,8|0,0:0|0:0,0:0:0:0:
279,116,116299,1,0,0:0:0:0:
279,115,116388,2,0,B|301:89|336:83|364:95,1,95.9999970703126,,,0:0:0:0:
230,268,116746,2,0,B|208:294|172:300|144:287,1,95.9999970703126,8|0,0:0|0:0,0:0:0:0:
366,96,117103,6,0,L|354:240,1,143.999995605469,,,0:0:0:0:
392,299,117460,2,0,B|363:318|327:312|303:290,1,95.9999970703126,14|0,0:0|0:0,0:0:0:0:
131,143,117817,2,0,L|144:287,1,143.999995605469,,,0:0:0:0:
104,346,118174,2,0,B|133:365|169:360|192:338,1,95.9999970703126,14|0,0:0|0:0,0:0:0:0:
327,240,118531,5,10,0:0:0:0:
144,287,118710,1,8,0:0:0:0:
336,163,118888,1,8,0:0:0:0:
231,268,119067,1,10,0:0:0:0:
279,116,119246,2,0,L|217:128,3,47.9999985351563,10|0|0|0,0:0|0:0|0:0|0:0,0:0:0:0:
127,187,119603,2,0,L|183:198,3,47.9999985351563,8|0|2|0,0:0|0:0|0:0|0:0,0:0:0:0:
71,247,119960,6,0,B|50:228|41:201|45:175,1,80,6|0,0:0|0:0,0:0:0:0:
253,188,120317,1,8,0:0:0:0:
253,188,120496,2,0,B|274:169|283:141|279:115,1,80,,,0:0:0:0:
127,187,120853,1,0,0:0:0:0:
231,268,121031,1,8,0:0:0:0:
73,324,121210,1,0,0:0:0:0:
218,345,121388,6,0,B|212:317|217:290|230:268,1,80,2|0,0:0|0:0,0:0:0:0:
192,138,121746,2,0,B|219:147|240:165|253:188,1,80,10|0,0:0|0:0,0:0:0:0:
384,219,122103,2,0,B|362:237|336:246|311:246,1,80,2|0,0:0|0:0,0:0:0:0:
126,186,122460,2,0,B|111:162|109:134|116:110,1,80,8|0,0:0|0:0,0:0:0:0:
71,247,122817,5,2,0:0:0:0:
192,138,122996,1,0,0:0:0:0:
37,88,123174,1,8,0:0:0:0:
193,43,123353,2,0,L|185:122,1,80,,,0:0:0:0:
111,62,123710,1,0,0:0:0:0:
253,188,123888,1,8,0:0:0:0:
71,247,124067,1,0,0:0:0:0:
241,265,124246,6,0,B|234:237|239:209|253:187,1,80,2|0,0:0|0:0,0:0:0:0:
406,138,124603,2,0,B|384:156|358:165|333:165,1,80,10|0,0:0|0:0,0:0:0:0:
214,58,124960,2,0,B|241:66|262:84|274:107,1,80,2|0,0:0|0:0,0:0:0:0:
374,36,125317,1,12,0:0:0:0:
356,18,125674,6,0,L|435:2,1,80,2|0,0:0|0:0,0:0:0:0:
434,95,126031,2,0,L|513:79,1,80,10|0,0:0|0:0,0:0:0:0:
268,142,126388,2,0,L|347:158,1,80,2|0,0:0|0:0,0:0:0:0:
190,219,126746,2,0,L|269:235,1,80,10|0,0:0|0:0,0:0:0:0:
133,48,127103,5,12,0:0:0:0:
268,142,127281,1,0,0:0:0:0:
77,193,127460,1,8,0:0:0:0:
266,63,127638,2,0,B|277:89|276:117|268:141,1,80,12|0,0:0|0:0,0:0:0:0:
190,219,127996,1,2,0:0:0:0:
355,164,128174,1,2,0:0:0:0:
187,105,128353,1,10,0:0:0:0:
187,105,128442,1,8,0:0:0:0:
187,105,128531,5,8,0:0:0:0:
190,219,128710,1,8,0:0:0:0:
266,63,128888,1,8,0:0:0:0:
187,105,129067,1,8,0:0:0:0:
279,172,129246,1,8,0:0:0:0:
101,104,129424,1,8,0:0:0:0:
190,219,129603,1,8,0:0:0:0:
187,105,129781,1,8,0:0:0:0:
112,218,129960,5,8,0:0:0:0:
112,218,130138,1,8,0:0:0:0:
332,195,130317,1,8,0:0:0:0:
332,195,130496,1,8,0:0:0:0:
187,105,130674,1,8,0:0:0:0:
187,105,130853,1,8,0:0:0:0:
360,36,131031,6,0,L|355:75,1,40,8|0,0:0|0:0,0:0:0:0:
187,105,131210,2,0,L|191:144,1,40,8|0,0:0|0:0,0:0:0:0:
294,3,131388,5,12,0:0:0:0:
256,192,131478,12,6,137103,0:0:0:0:
